Wynonna Earp season 3 | Nauka jazdy | Wifikill

The Predator (2018) 720p English HDCAM-Rip x264 MP3 750MB - MovCr

  • Category Movies
  • Type h.264/x264
  • Language English
  • Total size 771.9 MB
  • Uploaded By rock3
  • Downloads 134
  • Last checked 28 minutes ago
  • Date uploaded 7 hours ago
  • Seeders 16
  • Leechers 9

The Predator

HorrorScience FictionActionAdventure

From the outer reaches of space to the small-town streets of suburbia, the hunt comes home. Now, the universe’s most lethal hunters are stronger, smarter and deadlier than ever before, having genetically upgraded themselves with DNA from other species. When a young boy accidentally triggers their return to Earth, only a ragtag crew of ex-soldiers and a disgruntled science teacher can prevent the end of the human race.

Infohash : 84FA1DF3FE599BDB35EBC6D9FFAD172684A18257

The Predator (2018) 720p English HDCAM-Rip x264 MP3 750MB - MovCr



General
Unique ID : 153333435515139812095186887916144838962 (0x735AF20BDBA184B312CFF304F33C4932)
Complete name : www.MovCr.com - The Predator (2018) 720p English HDCAM-Rip x264 MP3 750MB - MovCr.mkv
Format : Matroska
Format version : Version 4
File size : 772 MiB
Duration : 1 h 40 min
Overall bit rate : 1 073 kb/s
Movie name : www.MovCr.com
Encoded date : UTC 2018-09-14T01:40:34Z
Writing application : HandBrake 1.1.1 2018061800
Writing library : Lavf57.7.2

Video
ID : 1
Format : AVC
Format/Info : Advanced Video Codec
Format profile : [email protected]
Format settings : CABAC / 4 Ref Frames
Format settings, CABAC : Yes
Format settings, RefFrames : 4 frames
Codec ID : V_MPEG4/ISO/AVC
Duration : 1 h 40 min
Bit rate : 981 kb/s
Width : 1 280 pixels
Height : 544 pixels
Display aspect ratio : 2.35:1
Frame rate mode : Constant
Frame rate : 29.970 (30000/1001) FPS
Color space : YUV
Chroma subsampling : 4:2:0
Bit depth : 8 bits
Scan type : Progressive
Bits/(Pixel*Frame) : 0.047
Stream size : 699 MiB (91%)
Title : www.MovCr.com
Writing library : x264 core 155 r2901 7d0ff22
Encoding settings : cabac=1 / ref=2 / deblock=1:0:0 / analyse=0x3:0x113 / me=hex / subme=6 / psy=1 / psy_rd=1.00:0.00 / mixed_ref=1 / me_range=16 / chroma_me=1 / trellis=1 / 8x8dct=1 / cqm=0 / deadzone=21,11 / fast_pskip=1 / chroma_qp_offset=-2 / threads=12 / lookahead_threads=2 / sliced_threads=0 / nr=0 / decimate=1 / interlaced=0 / bluray_compat=0 / constrained_intra=0 / bframes=3 / b_pyramid=2 / b_adapt=1 / b_bias=0 / direct=1 / weightb=1 / open_gop=0 / weightp=1 / keyint=300 / keyint_min=30 / scenecut=40 / intra_refresh=0 / rc_lookahead=30 / rc=abr / mbtree=1 / bitrate=981 / ratetol=1.0 / qcomp=0.60 / qpmin=0 / qpmax=69 / qpstep=4 / vbv_maxrate=25000 / vbv_bufsize=25000 / nal_hrd=none / filler=0 / ip_ratio=1.40 / aq=1:1.00
Default : Yes
Forced : No
Color range : Limited
Color primaries : BT.709
Transfer characteristics : BT.709
Matrix coefficients : BT.709

Audio
ID : 2
Format : MPEG Audio
Format version : Version 1
Format profile : Layer 3
Format settings : Joint stereo / MS Stereo
Codec ID : A_MPEG/L3
Codec ID/Hint : MP3
Duration : 1 h 40 min
Bit rate mode : Constant
Bit rate : 80.0 kb/s
Channel(s) : 2 channels
Sampling rate : 48.0 kHz
Compression mode : Lossy
Stream size : 57.6 MiB (7%)
Title : www.MovCr.com
Writing library : LAME3.100
Default : Yes
Forced : No






Files:

  • www.MovCr.com - The Predator (2018) 720p English HDCAM-Rip x264 MP3 750MB - MovCr.mkv (771.9 MB)

There are currently no comments. Feel free to leave one :)

Code:

  • udp://tracker.leechers-paradise.org:6969/announce
  • udp://tracker.opentrackr.org:1337/announce
  • udp://eddie4.nl:6969/announce
  • udp://9.rarbg.me:2710/announce
  • udp://9.rarbg.to:2750/announce
  • udp://public.popcorn-tracker.org:6969/announce
  • udp://tracker.opentrackr.org:1337/announce
  • udp://p4p.arenabg.ch:1337/announce
  • udp://tracker.internetwarriors.net:1337/announce
  • udp://tracker.coppersurfer.tk:6969/announce
  • http://torrentsmd.com:8080/announce