Making a Murderer (2015 ) | Jaime Winstone | Abarenbou Kishi!! Matsutarou

Stree 2018 Hindi 720p PRE-DVDRip x264 AAC { TaRa }.mkv

  • Category Movies
  • Type Bollywood
  • Language Hindi
  • Total size 1.1 GB
  • Uploaded By SkTara
  • Downloads 1372
  • Last checked 14 minutes ago
  • Date uploaded 3 hours ago
  • Seeders 77
  • Leechers 228

Stree

Horror

Set in the town of Chanderi, Stree is based on the urban legend of Nale Ba that went viral in Karnataka in the 1990s, and features Shraddha Kapoor and Rajkummar Rao in pivotal roles.

Infohash : 96C9AF5DF5C6ED0D9C395BBCF6ADAFE2DCEAF584


Stree 2018 Hindi 720p PRE-DVDRip x264 AAC { TaRa }.mkv


===================================================================
General
Complete name : Stree 2018 Hindi 720p PRE-DVDRip x264 AAC { TaRa }.mkv
Format : Matroska
Format version : Version 4 / Version 2
File size : 1.09 GiB
Duration : 2 h 4 min
Overall bit rate : 1 256 kb/s
===================================================================
Video
ID : 1
Format : AVC
Format/Info : Advanced Video Codec
Format profile : [email protected]
Format settings : CABAC / 2 Ref Frames
Format settings, CABAC : Yes
Format settings, ReFrames : 2 frames
Codec ID : V_MPEG4/ISO/AVC
Duration : 2 h 4 min
Bit rate : 1 154 kb/s
Width : 1 280 pixels
Height : 544 pixels
Display aspect ratio : 2.35:1
Frame rate mode : Constant
Frame rate : 25.000 FPS
Color space : YUV
Chroma subsampling : 4:2:0
Bit depth : 8 bits
Scan type : Progressive
Bits/(Pixel*Frame) : 0.066
Stream size : 1.00 GiB (92%)
Title : .....:::::: TaRa :::::....
Language : Hindi
Default : Yes
Forced : No
===================================================================
Audio
ID : 2
Format : AAC LC
Format/Info : Advanced Audio Codec Low Complexity
Codec ID : A_AAC-2
Duration : 2 h 4 min
Bit rate : 99.3 kb/s
Channel(s) : 6 channels
Channel layout : C L R Ls Rs LFE
Sampling rate : 44.1 kHz
Frame rate : 43.066 FPS (1024 SPF)
Compression mode : Lossy
Stream size : 88.6 MiB (8%)
Title : .....:::::: TaRa :::::....
Language : Hindi
Default : Yes
Forced : No
===================================================================































Files:

Stree 2018 Hindi 720p PRE-DVDRip x264 AAC { TaRa }.mkv
  • Stree 2018 Hindi 720p PRE-DVDRip x264 AAC { TaRa }.mkv (1.1 GB)
  • Stree 2018 Hindi 720p.jpg (118.9 KB)
  • stree-rev-1.jpg (60.2 KB)
  • www.hdsector.to Info.nfo (6.5 KB)
  • www.hdsector.to.txt (0.6 KB)

There are currently no comments. Feel free to leave one :)

Code:

  • udp://tracker.coppersurfer.tk:6969/announce
  • udp://tracker.ex.ua:80/announce
  • udp://shadowshq.yi.org:6969/announce
  • udp://eddie4.nl:6969/announce
  • udp://tracker.leechers-paradise.org:6969/announce
  • udp://tracker.opentrackr.org:1337/announce
  • udp://p4p.arenabg.ch:1337/announce
  • udp://p4p.arenabg.com:1337/announce
  • udp://9.rarbg.me:2780/announce
  • udp://9.rarbg.to:2790/announce
  • udp://tracker.coppersurfer.tk:80/announce
  • udp://tracker.vanitycore.co:6969/announce
  • udp://public.popcorn-tracker.org:6969/announce
  • udp://tracker.opentrackr.org:1337/announce
  • udp://tracker.justseed.it:1337/announce