Partners in Crime (2015) | Shuya Chang | Emerald City Saison 1

Genius 2018 Hindi 720p PRE-DVDRip x264 [MW]

  • Category Movies
  • Type Bollywood
  • Language Hindi
  • Total size 1.3 GB
  • Uploaded By moviezworldz
  • Downloads 273
  • Last checked 17 minutes ago
  • Date uploaded 1 hour ago
  • Seeders 21
  • Leechers 73

Mad Genius

Science Fiction

A young mad genius attempts to 'hack the human mind' in order to fix humanity.

Infohash : D2B4D196D5887BBCFA87AB9C232BD28263E69C89





General
Format : Matroska
Format version : Version 4 / Version 2
File size : 1.28 GiB
Duration : 2 h 28 min
Overall bit rate : 1 236 kb/s

Video
ID : 1
Format : AVC
Format/Info : Advanced Video Codec
Format profile : [email protected]
Format settings : CABAC / 4 Ref Frames
Format settings, CABAC : Yes
Format settings, RefFrames : 4 frames
Codec ID : V_MPEG4/ISO/AVC
Duration : 2 h 28 min
Bit rate : 1 100 kb/s
Width : 1 280 pixels
Height : 558 pixels
Display aspect ratio : 2.25:1
Frame rate mode : Constant
Frame rate : 25.000 FPS
Color space : YUV
Chroma subsampling : 4:2:0
Bit depth : 8 bits
Scan type : Progressive
Bits/(Pixel*Frame) : 0.062
Stream size : 1.14 GiB (89%)
Writing library : x264 core 155 r2901 7d0ff22
Default : Yes
Forced : No

Audio
ID : 2
Format : AAC
Format/Info : Advanced Audio Codec
Format profile : LC
Codec ID : A_AAC-2
Duration : 2 h 28 min
Bit rate : 129 kb/s
Channel(s) : 2 channels
Channel positions : Front: L R
Sampling rate : 48.0 kHz
Frame rate : 46.875 FPS (1024 SPF)
Compression mode : Lossy
Stream size : 137 MiB (10%)
Language : Hindi
Default : Yes
Forced : No


Click To Enlarge Image








Files:

Genius 2018 Hindi 720p PRE-DVDRip x264 [MW]
  • Genius 2018 Hindi 720p PRE-DVDRip x264 [MW].mkv (1.3 GB)

There are currently no comments. Feel free to leave one :)

Code:

  • udp://tracker.coppersurfer.tk:6969/announce
  • udp://tracker.pirateparty.gr:6969/announce
  • udp://tracker.coppersurfer.tk:6969/announce
  • udp://tracker.leechers-paradise.org:6969/announce
  • udp://eddie4.nl:6969/announce
  • udp://tracker.tiny-vps.com:6969/announce
  • udp://9.rarbg.me:2800/announce
  • udp://9.rarbg.to:2720/announce
  • udp://public.popcorn-tracker.org:6969/announce
  • udp://open.stealth.si:80/announce
  • udp://tracker.vanitycore.co:6969/announce
  • udp://tracker.opentrackr.org:1337/announce
  • udp://bt.firebit.co.uk:6969/announce
  • udp://shadowshq.yi.org:6969/announce