The Big Comfy Couch | Charlotte Louise | Doodh Ka Karz 1990 Hindi 720p HDRip x264...

18+ A Thought Of Ecstasy 2018 UNCENSORED Movies BRRip x264 5.1 wi...

  • Category Movies
  • Type h.264/x264
  • Language English
  • Total size 847.9 MB
  • Uploaded By nehalpuja
  • Downloads 120
  • Last checked 55 minutes ago
  • Date uploaded 1 hour ago
  • Seeders 3
  • Leechers 60

Infohash : BFC03447A1F8C8BA172F6A36F0E2B9971542F529

18+ A Thought Of Ecstasy 2018 UNCENSORED Movies BRRip x264 5.1 with Sample ☻rDX☻
===============================================================================================

SCREEN SHOTS:



or

http://iphonehosting.eu/2018/8/calling/1.html

File size : 838 MiB
Duration : 1 h 29 min
Overall bit rate mode : Constant
Overall bit rate : 1 316 kb/s
Movie name : 18+ A Thought Of Ecstasy 2018 UNCENSORED Movies BRRip x264 5.1 ☻rDX☻

Video
ID : 2
Format : AVC
Format/Info : Advanced Video Codec
Format profile : [email protected]
Format settings, CABAC : Yes
Format settings, ReFrames : 2 frames
Format settings, GOP : M=1, N=12
Codec ID : V_MPEG4/ISO/AVC
Duration : 1 h 29 min
Bit rate mode : Constant
Bit rate : 933 kb/s
Width : 720 pixels
Height : 400 pixels
Display aspect ratio : 16:9
Frame rate mode : Constant
Frame rate : 24.000 FPS
Color space : YUV
Chroma subsampling : 4:2:0
Bit depth : 8 bits
Scan type : Progressive
Bits/(Pixel*Frame) : 0.135
Stream size : 577 MiB (69%)
Title : ☻rDX☻
Default : Yes
Forced : No

Audio
ID : 1
Format : AC-3
Format/Info : Audio Coding 3
Mode extension : CM (complete main)
Format settings, Endianness : Big
Codec ID : A_AC3
Duration : 1 h 29 min
Bit rate mode : Constant
Bit rate : 384 kb/s
Channel(s) : 6 channels
Channel positions : Front: L C R, Side: L R, LFE
Sampling rate : 48.0 kHz
Frame rate : 31.250 FPS (1536 spf)
Bit depth : 16 bits
Compression mode : Lossy
Stream size : 245 MiB (29%)
Title : ☻rDX☻
Default : Yes
Forced : No



IMDB : http://www.imdb.com/title/tt6098794

Files:

18+ A Thought Of Ecstasy 2018 UNCENSORED Movies BRRip x264 5.1 with Sample ☻rDX☻
  • Sample ~ 18+ A Thought Of Ecstasy 2018 UNCENSORED Movies BRRip x264 5.1 ☻rDX☻.mkv (9.5 MB)
  • 18+ A Thought Of Ecstasy 2018 UNCENSORED Movies BRRip x264 5.1 ☻rDX☻.mkv (838.4 MB)

There are currently no comments. Feel free to leave one :)

Code:

  • udp://tracker.coppersurfer.tk:6969/announce
  • udp://tracker.leechers-paradise.org:6969/announce
  • udp://tracker.pirateparty.gr:6969/announce
  • udp://eddie4.nl:6969/announce
  • udp://tracker.zer0day.to:1337/announce
  • udp://9.rarbg.me:2710/announce
  • udp://9.rarbg.to:2710/announce
  • udp://public.popcorn-tracker.org:6969/announce
  • udp://p4p.arenabg.ch:1337/announce
  • udp://tracker.vanitycore.co:6969/announce
  • udp://ipv4.tracker.harry.lu:80/announce
  • udp://tracker.opentrackr.org:1337/announce
  • udp://p4p.arenabg.com:1337/announce
  • udp://shadowshq.yi.org:6969/announce