IMDb: 5.5 HD The Incantation | The 100 (2014) | IMDb: 7.8 S5E2 Cold Justice - Season 5

Kalakattam (2016) 720p Hindi Dubbed HDRip x264 AC3 by Full4movies

  • Category Movies
  • Type HD
  • Language Hindi
  • Total size 1.1 GB
  • Uploaded By shmasti
  • Downloads 59
  • Last checked 12 minutes ago
  • Date uploaded 5 days ago
  • Seeders 11
  • Leechers 1

Infohash : BE3D060374E45D2DF37E13C2CEB72C2E3C419691



General
Complete name : Kalakattam (2016) 720p Hindi Dubbed HDRip x264 AC3 by Full4movies.mkv
Format : Matroska
Format version : Version 4 / Version 2
File size : 1.05 GiB
Duration : 2 h 6 min
Overall bit rate : 1 194 kb/s
Encoded date : UTC 2018-08-10 07:37:22
Writing application : mkvmerge v8.1.0 ('Psychedelic Postcard') 32bit
Writing library : libebml v1.3.1 + libmatroska v1.4.2
Cover : Yes
Attachments : Covers.jpg

Video
ID : 1
Format : AVC
Format/Info : Advanced Video Codec
Format profile : [email protected]
Format settings, CABAC : Yes
Format settings, RefFrames : 3 frames
Codec ID : V_MPEG4/ISO/AVC
Duration : 2 h 6 min
Bit rate : 1 000 kb/s
Width : 1 280 pixels
Height : 544 pixels
Display aspect ratio : 2.35:1
Frame rate mode : Constant
Frame rate : 24.000 FPS
Color space : YUV
Chroma subsampling : 4:2:0
Bit depth : 8 bits
Scan type : Progressive
Bits/(Pixel*Frame) : 0.060
Stream size : 903 MiB (84%)
Writing library : x264 core 79
Language : Tamil
Default : Yes
Forced : No
Color range : Limited
Color primaries : BT.709
Transfer characteristics : BT.709
Matrix coefficients : BT.709

Audio
ID : 2
Format : AC-3
Format/Info : Audio Coding 3
Mode : Dolby Digital
Format settings, Endianness : Big
Codec ID : A_AC3
Duration : 2 h 6 min
Bit rate mode : Constant
Bit rate : 192 kb/s
Channel(s) : 2 channels
Channel positions : Front: L R
Sampling rate : 48.0 kHz
Frame rate : 31.250 FPS (1536 SPF)
Bit depth : 16 bits
Compression mode : Lossy
Stream size : 173 MiB (16%)
Title : -=!Dr.STAR!=-
Language : Hindi
Service kind : Complete Main
Default : Yes
Forced : No

Screen Shoots

Files:

  • Kalakattam (2016) 720p Hindi Dubbed HDRip x264 AC3 by Full4movies.mkv (1.1 GB)

There are currently no comments. Feel free to leave one :)

Code:

  • udp://tracker.coppersurfer.tk:6969/announce
  • udp://tracker.opentrackr.org:1337/announce
  • udp://9.rarbg.me:2710/announce
  • udp://tracker.torrent.eu.org:451/announce
  • udp://open.stealth.si:80/announce
  • udp://public.popcorn-tracker.org:6969/announce
  • udp://p4p.arenabg.ch:1337/announce
  • udp://tracker.zer0day.to:1337/announce
  • udp://tracker.pirateparty.gr:6969/announce
  • udp://tracker.leechers-paradise.org:6969/announce
  • udp://tracker.tiny-vps.com:6969/announce
  • udp://bt.firebit.co.uk:6969/announce
  • udp://inferno.demonoid.pw:3397/announce
  • udp://shadowshq.yi.org:6969/announce
  • udp://9.rarbg.to:2780/announce