Download | Плащ и Кинжал / Cloak Dagger [01x01-06 из 10] (2018) WEB-DL 1080p | Невафильм | Website Related Help?

The Secret Of Marrowbone 2018 Movies BRRip x264 5.1 ESubs with Sa...

  • Category Movies
  • Type h.264/x264
  • Language English
  • Total size 846.5 MB
  • Uploaded By nehalpuja
  • Downloads 57
  • Last checked 19 minutes ago
  • Date uploaded 4 days ago
  • Seeders 6
  • Leechers 4

Infohash : 5F9DABBA7588BBA260C4E855FD102685E57F2C02

The Secret Of Marrowbone 2018 Movies BRRip x264 5.1 ESubs with Sample ☻rDX☻
===============================================================================================

SCREEN SHOTS:



or

http://iphonehosting.eu/2018/8/gadgets/1.html

File size : 839 MiB
Duration : 1 h 50 min
Overall bit rate : 1 063 kb/s
Movie name : The Secret Of Marrowbone 2018 Movies BRRip x264 5.1 ESubs ☻rDX☻

Video
ID : 2
Format : AVC
Format/Info : Advanced Video Codec
Format profile : [email protected]
Format settings, CABAC : Yes
Format settings, ReFrames : 2 frames
Format settings, GOP : M=1, N=12
Codec ID : V_MPEG4/ISO/AVC
Duration : 1 h 50 min
Bit rate mode : Constant
Bit rate : 840 kb/s
Width : 680 pixels
Height : 280 pixels
Display aspect ratio : 2.40:1
Frame rate mode : Constant
Frame rate : 23.976 (24000/1001) FPS
Color space : YUV
Chroma subsampling : 4:2:0
Bit depth : 8 bits
Scan type : Progressive
Bits/(Pixel*Frame) : 0.184
Stream size : 645 MiB (77%)
Title : ☻rDX☻
Default : Yes
Forced : No

Audio
ID : 1
Format : AC-3
Format/Info : Audio Coding 3
Mode extension : CM (complete main)
Format settings, Endianness : Big
Codec ID : A_AC3
Duration : 1 h 50 min
Bit rate mode : Constant
Bit rate : 224 kb/s
Channel(s) : 6 channels
Channel positions : Front: L C R, Side: L R, LFE
Sampling rate : 48.0 kHz
Frame rate : 31.250 FPS (1536 spf)
Bit depth : 16 bits
Compression mode : Lossy
Delay relative to video : 5 ms
Stream size : 177 MiB (21%)
Title : ☻rDX☻
Language : English
Default : Yes
Forced : No

Text
ID : 3
Format : ASS
Codec ID : S_TEXT/ASS
Codec ID/Info : Advanced Sub Station Alpha
Compression mode : Lossless
Title : ☻rDX☻
Language : English
Default : Yes
Forced : No



IMDB : http://www.imdb.com/title/tt5886440

Files:

The Secret Of Marrowbone 2018 Movies BRRip x264 5.1 ESubs with Sample ☻rDX☻
  • Sample ~ The Secret Of Marrowbone 2018 Movies BRRip x264 5.1 ESubs ☻rDX☻.mkv (8.0 MB)
  • The Secret Of Marrowbone 2018 Movies BRRip x264 5.1 ESubs ☻rDX☻.mkv (838.5 MB)

There are currently no comments. Feel free to leave one :)

Code:

  • udp://tracker.coppersurfer.tk:6969/announce
  • udp://tracker.leechers-paradise.org:6969/announce
  • udp://tracker.pirateparty.gr:6969/announce
  • udp://eddie4.nl:6969/announce
  • udp://tracker.zer0day.to:1337/announce
  • udp://9.rarbg.me:2710/announce
  • udp://9.rarbg.to:2710/announce
  • udp://public.popcorn-tracker.org:6969/announce
  • udp://p4p.arenabg.ch:1337/announce
  • udp://tracker.vanitycore.co:6969/announce
  • udp://ipv4.tracker.harry.lu:80/announce
  • udp://tracker.opentrackr.org:1337/announce
  • udp://p4p.arenabg.com:1337/announce
  • udp://shadowshq.yi.org:6969/announce