Drama Series | Ezra 2017 Hindi DVDRip x264 with Sample | Smarty Uninstaller

Dhadak (2018) Hindi 720p HQ Pre-DVDRip x264 AAC 1.3GB [MovCr]

  • Category Movies
  • Type Bollywood
  • Language Hindi
  • Total size 1.3 GB
  • Uploaded By ictv
  • Downloads 21668
  • Last checked 3 weeks ago
  • Date uploaded 3 weeks ago
  • Seeders 242
  • Leechers 74

Dhadak

RomanceDrama

Madhukar and Parthavi fall head over heels in love with each other, but the fact that they belong to different castes of society, becomes an obstacle in their romance. The lovers dare to go against societal norms and battle all odds for the sake of love.

Infohash : D9FFEFC0E8E156DDFE1780C5ABE0D0DC14F1D566

Visit Our Site www.movcr.com

http://www.imdb.com/title/tt7638344/



General
Unique ID : 196735869042251010924971258418154059620 (0x9401F33BDFB16CE01E5C91A9B15E3764)
Complete name : [www.MovCr.com] - Dhadak (2018) Hindi 720p HQ Pre-DVDRip x264 AAC 1.3GB [MovCr]\www.MovCr.com - Dhadak (2018) Hindi 720p HQ Pre-DVDRip x264 AAC 1.3GB [MovCr].mkv
Format : Matroska
Format version : Version 4 / Version 2
File size : 1.31 GiB
Duration : 2 h 10 min
Overall bit rate : 1 438 kb/s
Movie name : www.MovCr.com
Encoded date : UTC 2018-07-20 17:12:59
Writing application : mkvmerge v23.0.0 ('The Bride Said No') 64-bit
Writing library : libebml v1.3.6 + libmatroska v1.4.9

Video
ID : 1
Format : AVC
Format/Info : Advanced Video Codec
Format profile : [email protected]
Format settings : CABAC / 2 Ref Frames
Format settings, CABAC : Yes
Format settings, RefFrames : 2 frames
Codec ID : V_MPEG4/ISO/AVC
Duration : 2 h 10 min
Bit rate : 1 304 kb/s
Width : 1 280 pixels
Height : 544 pixels
Display aspect ratio : 2.35:1
Frame rate mode : Constant
Frame rate : 25.000 FPS
Color space : YUV
Chroma subsampling : 4:2:0
Bit depth : 8 bits
Scan type : Progressive
Bits/(Pixel*Frame) : 0.075
Stream size : 1.19 GiB (91%)
Title : www.MovCr.com
Default : Yes
Forced : No

Audio
ID : 2
Format : AAC
Format/Info : Advanced Audio Codec
Format profile : LC
Codec ID : A_AAC-2
Duration : 2 h 10 min
Bit rate : 132 kb/s
Channel(s) : 2 channels
Channel positions : Front: L R
Sampling rate : 48.0 kHz
Frame rate : 46.875 FPS (1024 SPF)
Compression mode : Lossy
Stream size : 122 MiB (9%)
Default : Yes
Forced : No











Files:

[www.MovCr.com] - Dhadak (2018) Hindi 720p HQ Pre-DVDRip x264 AAC 1.3GB [MovCr]
  • www.MovCr.com - Dhadak (2018) Hindi 720p HQ Pre-DVDRip x264 AAC 1.3GB [MovCr].mkv (1.3 GB)
  • www.MovCr.com.txt (0.0 KB)

Comments

Code:

  • udp://tracker.coppersurfer.tk:6969/announce
  • udp://tracker.opentrackr.org:1337/announce
  • udp://tracker.leechers-paradise.org:6969/announce
  • udp://9.rarbg.to:2800/announce
  • udp://9.rarbg.to:2800/announce
  • udp://eddie4.nl:6969/announce
  • udp://9.rarbg.to:2800/announce
  • udp://9.rarbg.to:2800/announce
  • udp://tracker.doko.moe:6969/announce
  • udp://tracker.doko.moe:6969/announce
  • udp://thetracker.org:80/announce
  • udp://thetracker.org:80/announce
  • udp://bt.xxx-tracker.com:2710/announce
  • udp://bt.xxx-tracker.com:2710/announce
  • udp://tracker.vanitycore.co:6969/announce
  • udp://tracker.vanitycore.co:6969/announce
  • udp://tracker.tiny-vps.com:6969/announce
  • udp://tracker.leechers-paradise.org:6969/announce
  • udp://tracker.tiny-vps.com:6969/announce
  • udp://tracker.opentrackr.org:1337/announce
  • udp://tracker.coppersurfer.tk:6969/announce
  • udp://open.stealth.si:80/announce
  • udp://tracker.leechers-paradise.org:6969/announce
  • udp://inferno.demonoid.pw:3418/announce
  • udp://tracker.opentrackr.org:1337/announce
  • udp://retracker.lanta-net.ru:2710/announce
  • udp://peerfect.org:6969/announce
  • udp://tracker.coppersurfer.tk:6969/announce
  • udp://tracker.swateam.org.uk:2710/announce
  • udp://open.stealth.si:80/announce
  • udp://inferno.demonoid.pw:3418/announce
  • udp://retracker.lanta-net.ru:2710/announce
  • udp://peerfect.org:6969/announce
  • udp://tracker.swateam.org.uk:2710/announce