Just Like Heaven (The Cure) | Gatos. Un viaje de vuelta a casa | John S Bowman Peter Kerasiotis Sherry Marker Heidi Sarna Frommers Greece 8th Edition

102 Not Out (2018) HDRip 720p Hindi H264 AAC - LatestHDMovies

  • Category Movies
  • Type Bollywood
  • Language Hindi
  • Total size 1.0 GB
  • Uploaded By LHDM
  • Downloads 47
  • Last checked 38 minutes ago
  • Date uploaded 2 hours ago
  • Seeders 1
  • Leechers 16

102 Not Out

Comedy

A 102-year-old man tries to break the record for the oldest person in the world.

Infohash : BC4AE055399AA29DA15642A11E2FF896899C6743





[[>>SAMPLE<<]]
http://oLOAD.STREAM/f/8zR65rxy9as/vlc-record-2018-07-12-05h13m08s-Available_%40_LatestHDMovies.Org-.mp4



Visit OUR Website ,Enjoy EXCLUSIVE Movies Without Watermarks.


http://latesthmovies.org







General
Unique ID : 72076121119848799772139373367023068629 (0x36395B226C3ABEC6B6EE2052C77F65D5)
Complete name : C:\Users\SHAHID\Downloads\Video\102 Not Out (2018) HDRip 720p Hindi H264 AAC - LatestHDMovies.mkv
Format : Matroska
Format version : Version 4 / Version 2
File size : 1.00 GiB
Duration : 1 h 43 min
Overall bit rate : 1 384 kb/s
Movie name : Available @ LatestHDMovies.Org
Encoded date : UTC 2018-07-11 22:46:01
Writing application : mkvmerge v24.0.0 ('Beyond The Pale') 32-bit
Writing library : libebml v1.3.6 + libmatroska v1.4.9
Cover : Yes
Attachments : Cover.jpg

Video
ID : 1
Format : AVC
Format/Info : Advanced Video Codec
Format profile : [email protected]
Format settings : CABAC / 5 Ref Frames
Format settings, CABAC : Yes
Format settings, ReFrames : 5 frames
Codec ID : V_MPEG4/ISO/AVC
Duration : 1 h 43 min
Bit rate : 1 088 kb/s
Width : 1 280 pixels
Height : 544 pixels
Display aspect ratio : 2.35:1
Frame rate mode : Constant
Frame rate : 23.976 (23976/1000) FPS
Color space : YUV
Chroma subsampling : 4:2:0
Bit depth : 8 bits
Scan type : Progressive
Bits/(Pixel*Frame) : 0.065
Stream size : 808 MiB (79%)
Title : Available @ LatestHDMovies.Org
Writing library : x264 core 148 r2643 5c65704
Encoding settings : cabac=1 / ref=5 / deblock=1:0:0 / analyse=0x3:0x113 / me=hex / subme=7 / psy=1 / psy_rd=1.00:0.00 / mixed_ref=1 / me_range=16 / chroma_me=1 / trellis=1 / 8x8dct=1 / cqm=0 / deadzone=21,11 / fast_pskip=1 / chroma_qp_offset=-2 / threads=8 / lookahead_threads=8 / sliced_threads=1 / slices=8 / nr=0 / decimate=1 / interlaced=0 / bluray_compat=0 / constrained_intra=0 / bframes=0 / weightp=2 / keyint=250 / keyint_min=23 / scenecut=40 / intra_refresh=0 / rc=2pass / mbtree=0 / bitrate=1088 / ratetol=1.0 / qcomp=0.60 / qpmin=0 / qpmax=69 / qpstep=4 / cplxblur=20.0 / qblur=0.5 / ip_ratio=1.40 / aq=1:1.00
Language : Hindi
Default : Yes
Forced : No

Audio
ID : 2
Format : AAC
Format/Info : Advanced Audio Codec
Format profile : LC
Codec ID : A_AAC-2
Duration : 1 h 43 min
Bit rate : 288 kb/s
Channel(s) : 2 channels
Channel positions : Front: L R
Sampling rate : 48.0 kHz
Frame rate : 46.875 FPS (1024 SPF)
Compression mode : Lossy
Stream size : 217 MiB (21%)
Language : Hindi
Default : Yes
Forced : No















Files:

  • 102 Not Out (2018) HDRip 720p Hindi H264 AAC - LatestHDMovies.mkv (1.0 GB)

There are currently no comments. Feel free to leave one :)

Code:

  • udp://tracker.opentrackr.org:1337/announce
  • udp://9.rarbg.me:2710/announce
  • udp://shadowshq.yi.org:6969/announce
  • udp://p4p.arenabg.com:1337/announce
  • udp://ipv4.tracker.harry.lu:80/announce
  • udp://tracker.leechers-paradise.org:6969/announce
  • udp://tracker.eddie4.nl:6969/announce
  • udp://shadowshq.eddie4.nl:6969/announce
  • udp://tracker.coppersurfer.tk:6969/announce
  • udp://9.rarbg.me:2780/announce
  • udp://9.rarbg.to:2710/announce
  • udp://p4p.arenabg.ch:1337/announce
  • udp://tracker.zer0day.to:1337/announce
  • udp://tracker.leechers-paradise.org:6969/announce
  • udp://coppersurfer.tk:6969/announce