Augenblicke: Gesichter einer Reise (2017) | Ice World | Total Recall DVDRIP

The Last Man (2018) 720p HC HDRip HDRip x264 AC3 by Full4movies

  • Category Movies
  • Type HD
  • Language English
  • Total size 920.5 MB
  • Uploaded By shmasti
  • Downloads 141
  • Last checked 49 minutes ago
  • Date uploaded 13 hours ago
  • Seeders 20
  • Leechers 11

The Last Man

Numb, At The Edge Of The End tells the story of Kurt Matheson (Hayden Christensen), a war veteran with post traumatic stress disorder who believes the end of the world is coming. After establishing a relationship with a dubious Messiah (Harvey Keitel), he leaves his normal life and begins to train in an extreme way in an underground shelter. All doubt his mental stability but when he starts to doubt himself something extraordinary begins to happen. Directed by Rodrigo H. Vila for Cinema 7 Films and United International Pictures (UIP).

Infohash : 95D0F9DC7EDC59F36AA6023E11C4E8C27BFBA5EB



General
Complete name : The Last Man (2018) 720p HC HDRip HDRip x264 AC3 by Full4movies.mkv
Format : Matroska
Format version : Version 4 / Version 2
File size : 921 MiB
Duration : 1 h 41 min
Overall bit rate : 1 266 kb/s
Encoded date : UTC 2018-07-10 17:31:18
Writing application : mkvmerge v8.1.0 ('Psychedelic Postcard') 32bit
Writing library : libebml v1.3.1 + libmatroska v1.4.2

Video
ID : 1
Format : AVC
Format/Info : Advanced Video Codec
Format profile : [email protected]
Format settings, CABAC : Yes
Format settings, RefFrames : 4 frames
Codec ID : V_MPEG4/ISO/AVC
Duration : 1 h 41 min
Bit rate : 1 200 kb/s
Width : 1 280 pixels
Height : 528 pixels
Display aspect ratio : 2.40:1
Frame rate mode : Constant
Frame rate : 24.000 FPS
Color space : YUV
Chroma subsampling : 4:2:0
Bit depth : 8 bits
Scan type : Progressive
Bits/(Pixel*Frame) : 0.074
Stream size : 872 MiB (95%)
Writing library : x264 core 155 r2901 7d0ff22
Default : Yes
Forced : No
Color range : Limited
Color primaries : BT.601 NTSC
Transfer characteristics : BT.709
Matrix coefficients : BT.601

Audio
ID : 2
Format : AAC
Format/Info : Advanced Audio Codec
Format profile : LC
Codec ID : A_AAC
Duration : 1 h 41 min
Bit rate : 64.2 kb/s
Channel(s) : 2 channels
Channel positions : Front: L R
Sampling rate : 48.0 kHz
Frame rate : 46.875 FPS (1024 SPF)
Compression mode : Lossy
Stream size : 46.7 MiB (5%)
Language : English
Default : Yes
Forced : No

Screen Shoots

Files:

  • The Last Man (2018) 720p HC HDRip HDRip x264 AC3 by Full4movies.mkv (920.5 MB)

There are currently no comments. Feel free to leave one :)

Code:

  • udp://tracker.coppersurfer.tk:6969/announce
  • udp://tracker.opentrackr.org:1337/announce
  • udp://9.rarbg.me:2710/announce
  • udp://tracker.torrent.eu.org:451/announce
  • udp://open.stealth.si:80/announce
  • udp://public.popcorn-tracker.org:6969/announce
  • udp://p4p.arenabg.ch:1337/announce
  • udp://tracker.zer0day.to:1337/announce
  • udp://tracker.pirateparty.gr:6969/announce
  • udp://tracker.leechers-paradise.org:6969/announce
  • udp://tracker.tiny-vps.com:6969/announce
  • udp://bt.firebit.co.uk:6969/announce
  • udp://inferno.demonoid.pw:3397/announce
  • udp://shadowshq.yi.org:6969/announce
  • udp://9.rarbg.to:2780/announce