Programming Rust; Fast, Safe Systems Development | Voir la fiche | Ekachai Uekrongtham

Science Channel - Faces of Earth

  • Category Documentaries
  • Type Documentary
  • Language English
  • Total size 8.7 GB
  • Uploaded By ShinkFive
  • Downloads 13
  • Last checked 37 minutes ago
  • Date uploaded 3 hours ago
  • Seeders 1
  • Leechers 19

Infohash : C4D079E4E3DC64A717B680338E74D8C302BCC000



Faces of Earth is a 4-hour high-definition television series about the ever-changing planet we live on. The only thing constant on Earth is change and Faces of Earth examines this phenomenon through the eyes of those that know it best - geoscientists. Explosive volcanic eruptions, earthquakes, floods and even human beings contribute to the constant changes on the Earth's surface.

Explore how through time the forces of nature have continuously remade Earth - giving it many distinct faces through history, and many new ones into the future. Faces of Earth is shot in stunning high-definition with extensive aerials, cutting edge animations, and engaging interviews. Discover the compelling story of how the world's titanic forces play a key role in just about every aspect of life. Geoscientists note that by understanding Earth's constantly shifting surface, we can prepare for changes such as volcanic eruptions, earthquakes and floods to perhaps make adjustments for what lies ahead. Watch as Faces of Earth peels back the layers of Earth's geologic system to uncover a world of mystery.

Uncover the deep mysteries of our planet with top geologists in Faces Of Earth. Using state-of-the-art computer animation and stunning photography, these four in-depth, compelling programs explore how these forces shape the Earth and how, in turn, the Earth has shaped human evolution.

Building the Planet
Prepare to witness the explosion that formed planet Earth, and travel back in time to explore the evolution of the Earth we know today. See new technologies that allow today's geoscientists to strip back the layers of Earth and learn how Earth's processes produce the materials and resources that mark the cornerstone of modern society


Shaping the Planet
Compelling special effects and advanced animation techniques take you inside tectonic events. Earthquakes rumble, volcanoes explode and land is stretched pushing up mountains and creating new oceans. Travel around the world with geoscientists who use new high-tech tools to study why the ground constantly shifts under our feet.


Assembling America
Guided by leading geoscientists with the aid of dramatic special effects and animations, unravel the mysteries of continent-building and the almost unimaginable span of geologic time. Using high-tech science tools and even ultra-light aircraft, travel with geoscientists as they discover America's prominent geologic features and how they were formed.


A Human World
See how geologic and climatic changes have shaped human development and sparked human migration around the globe as ice ages retreated and advanced. Earth has shaped human evolution and now humans are shaping Earth. But it is a mistake to think human innovations have put mankind and Earth on an equal footing. Find out if this delicate balance will one day be put off-track.

General
Format                                   : Matroska
Format version                           : Version 2
File size                                : ~2 GiB
Duration                                 : ~48 min
Overall bit rate                         : 6,494 kb/s

Video
Format                                   : AVC
Format/Info                              : Advanced Video Codec
Format profile                           : [email protected]
Format settings                          : CABAC / 5 Ref Frames
Format settings, CABAC                   : Yes
Format settings, RefFrames               : 5 frames
Codec ID                                 : V_MPEG4/ISO/AVC
Duration                                 : ~48 min
Bit rate                                 : 6,107 kb/s
Width                                    : 1,280 pixels
Height                                   : 720 pixels
Display aspect ratio                     : 16:9
Frame rate mode                          : Constant
Frame rate                               : 23.976 (24000/1001) FPS
Color space                              : YUV
Chroma subsampling                       : 4:2:0
Bit depth                                : 8 bits
Scan type                                : Progressive
Bits/(Pixel*Frame)                       : 0.276
Stream size                              : 2.01 GiB (92%)
Language                                 : English
Default                                  : Yes
Forced                                   : No

Audio
Format                                   : DTS
Format/Info                              : Digital Theater Systems
Codec ID                                 : A_DTS
Duration                                 : ~48 min
Bit rate mode                            : Constant
Bit rate                                 : 384 kb/s
Channel(s)                               : 2 channels
Channel positions                        : Front: L R
Sampling rate                            : 48.0 kHz
Frame rate                               : 93.750 FPS (512 SPF)
Bit depth                                : 16 bits
Compression mode                         : Lossy
Stream size                              : 132 MiB (6%)
Language                                 : English
Default                                  : Yes
Forced                                   : No

Files:

Science.Channel.Face.of.Earth
  • The.Science.Channel.Faces.of.Earth.1of4.Building.the.Planet.x264.720p.HDBRiSe.mkv (2.2 GB)
  • The.Science.Channel.Faces.of.Earth.2of4.Shaping.the.Planet.x264.720p.HDBRiSe.mkv (2.2 GB)
  • The.Science.Channel.Faces.of.Earth.3of4.Assembling.America.x264.720p.HDBRiSe.mkv (2.2 GB)
  • The.Science.Channel.Faces.of.Earth.4of4.A.Human.World.x264.720p.HDBRiSe.mkv (2.2 GB)
  • Torrent_downloaded_from_caionanet.info.txt (0.0 KB)
  • Torrent_downloaded_from_Demonoid_-_www.demonoid.pw_.txt (0.1 KB)

There are currently no comments. Feel free to leave one :)

Code:

  • udp://tracker.leechers-paradise.org:6969/announce
  • udp://tracker.coppersurfer.tk:6969/announce
  • udp://tracker.opentrackr.org:1337/announce
  • udp://eddie4.nl:6969/announce
  • udp://inferno.demonoid.pw:3391/announce
  • udp://tracker.coppersurfer.tk:6969
  • udp://tracker.opentrackr.org:1337/announce
  • udp://tracker.tiny-vps.com:6969/announce
  • udp://tracker.vanitycore.co:6969/announce
  • udp://tracker.leechers-paradise.org:6969